<?xml version="1.0" standalone="no"?>
<!DOCTYPE svg PUBLIC "-//W3C//DTD SVG 1.1//EN" "http://www.w3.org/Graphics/SVG/1.1/DTD/svg11.dtd" >
<svg xmlns="http://www.w3.org/2000/svg">
<metadata>Generated by IcoMoon</metadata>
<defs>
<font id="icomoon" horiz-adv-x="1024">
<font-face units-per-em="1024" ascent="960" descent="-64" />
<missing-glyph horiz-adv-x="1024" />
<glyph unicode="&#x20;" horiz-adv-x="512" d="" />
<glyph unicode="&#xe900;" glyph-name="ic_arrow" d="M64.33 421.967l838.19 1.681-100.392-99.423c-4.451-4.451-6.904-10.346-6.904-16.617 0-6.291 2.453-12.186 6.924-16.617 4.589-4.55 10.623-6.805 16.636-6.805 6.033 0 12.067 2.275 16.636 6.805l139.006 137.7c4.49 4.431 6.963 10.346 6.963 16.636 0 6.271-2.473 12.186-6.963 16.597 0 0-62.239 61.672-93.358 92.508-15.216 15.077-45.648 45.232-45.648 45.232-9.159 9.080-24.114 9.080-33.273 0-4.471-4.431-6.943-10.346-6.943-16.636s2.473-12.186 6.943-16.597l96.752-95.862-834.57-1.681c-7.181 0-15.568-6.152-15.568-23.461s8.387-23.461 15.568-23.461z" />
<glyph unicode="&#xe901;" glyph-name="ic_calendar_large" d="M219.42 521.143v-170.667h171.746v170.667h-171.746zM656.285 521.143v-170.667h172.667v170.667h-172.667zM441.008 521.143v-170.667h166.364v170.667h-166.364zM219.42 301.714v-170.92h171.746v170.92h-171.746zM656.285 301.714v-170.92h172.667v170.92h-172.667zM441.008 301.714v-170.92h166.364v170.92h-166.364zM219.429 789.333h609.524c26.93 0 48.762-21.831 48.762-48.762v-609.524c0-26.93-21.831-48.762-48.762-48.762h-609.524c-26.93 0-48.762 21.831-48.762 48.762v609.524c0 26.93 21.831 48.762 48.762 48.762zM524.19 667.429c20.198 0 36.571 16.374 36.571 36.571s-16.374 36.571-36.571 36.571c-20.198 0-36.571-16.374-36.571-36.571s16.374-36.571 36.571-36.571z" />
<glyph unicode="&#xe902;" glyph-name="ic_courriel_large" d="M195.048 642.941v-414.369h633.905v406.659l-313.097-313.078-320.808 320.788zM195.048 691.81h633.905c26.93 0 48.762-21.831 48.762-48.762v-414.476c0-26.93-21.831-48.762-48.762-48.762h-633.905c-26.93 0-48.762 21.831-48.762 48.762v414.476c0 26.93 21.831 48.762 48.762 48.762z" />
<glyph unicode="&#xe903;" glyph-name="ic_facebook" d="M588.65 813.714c-63.104 0-112.064-19.934-146.82-59.803-34.756-39.9-52.133-95.736-52.133-167.601v-45.663h-72.745v-132.424h72.745v-338.823h157.76v338.823h104.992v132.424h-104.992v34.704c0 32.279 6.135 56.339 18.405 72.148 12.27 15.841 30.978 23.777 56.092 23.777 9.036 0 19.252-1.071 30.494-3.055v138.66c-0.695 0.157-1.3 0.315-2.025 0.441-21.307 4.283-41.918 6.393-61.774 6.393z" />
<glyph unicode="&#xe904;" glyph-name="ic_fax_large" d="M643.203 252.952h-277.489v-100.887h277.489zM650.719 512.736h-277.464l-0.025 201.773h277.489v-201.773zM827.271 512.736h-126.108v201.773c0 27.845-22.599 50.443-50.443 50.443h-277.438c-27.87 0-50.443-22.599-50.443-50.443v-201.773h-126.108c-27.87 0-50.443-22.599-50.443-50.443v-252.217c0-27.845 22.573-50.443 50.443-50.443h126.108v100.887c0 27.845 22.573 50.443 50.443 50.443h277.438c27.845 0 50.443-22.599 50.443-50.443v-100.887h126.108c27.845 0 50.443 22.599 50.443 50.443v252.217c0 27.845-22.599 50.443-50.443 50.443z" />
<glyph unicode="&#xe905;" glyph-name="ic_files" d="M658.286 496.762h-268.19c-13.458 0-24.381 10.898-24.381 24.381s10.923 24.381 24.381 24.381h268.19c13.458 0 24.381-10.898 24.381-24.381s-10.923-24.381-24.381-24.381zM658.286 374.857h-268.19c-13.458 0-24.381 10.898-24.381 24.381s10.923 24.381 24.381 24.381h268.19c13.458 0 24.381-10.898 24.381-24.381s-10.923-24.381-24.381-24.381zM658.286 252.952h-268.19c-13.458 0-24.381 10.898-24.381 24.381s10.923 24.381 24.381 24.381h268.19c13.458 0 24.381-10.898 24.381-24.381s-10.923-24.381-24.381-24.381zM553.131 813.714h202.679c26.917 0 48.762-21.845 48.762-48.762v-658.286c0-26.917-21.845-48.762-48.762-48.762h-463.238c-26.917 0-48.762 21.845-48.762 48.762v658.286c0 26.917 21.845 48.762 48.762 48.762h260.559zM755.81 106.667v438.857l-219.429 219.429h-243.81v-658.286h463.238z" />
<glyph unicode="&#xe906;" glyph-name="ic_international_large" d="M602.427 88.116c133.973 30.016 239.441 135.483 269.457 269.457-46.461-29.575-119.478-51.332-206.891-62.565-11.233-87.413-32.99-160.431-62.565-206.891zM871.884 514.046c-30.016 133.973-135.483 239.441-269.457 269.457 29.575-46.461 51.332-119.478 62.565-206.891 87.413-11.233 160.431-32.99 206.891-62.565zM445.954 783.503c-133.973-30.016-239.441-135.483-269.457-269.457 46.461 29.575 119.478 51.332 206.891 62.565 11.233 87.413 32.99 160.431 62.565 206.891zM176.497 357.573c30.016-133.973 135.483-239.441 269.457-269.457-29.575 46.461-51.332 119.478-62.565 206.891-87.413 11.233-160.431 32.99-206.891 62.565zM524.19 33.524c-222.176 0-402.286 180.109-402.286 402.286s180.109 402.286 402.286 402.286c222.176 0 402.286-180.109 402.286-402.286s-180.109-402.286-402.286-402.286zM378.45 342.434c-2.422 29.967-3.68 61.232-3.68 93.376s1.258 63.408 3.68 93.376c-124.142-17.777-210.57-56.353-210.57-93.376s86.428-75.599 210.57-93.376zM669.931 529.185c2.422-29.967 3.68-61.232 3.68-93.376s-1.258-63.408-3.68-93.376c124.142 17.777 210.57 56.353 210.57 93.376s-86.428 75.599-210.57 93.376zM430.815 290.069c17.777-124.142 56.353-210.57 93.376-210.57s75.599 86.428 93.376 210.57c-29.967-2.422-61.232-3.68-93.376-3.68s-63.408 1.258-93.376 3.68zM425.295 336.914c31.398-2.934 64.578-4.55 98.895-4.55s67.497 1.616 98.895 4.55c2.934 31.398 4.55 64.578 4.55 98.895s-1.616 67.497-4.55 98.895c-31.398 2.934-64.578 4.55-98.895 4.55s-67.497-1.616-98.895-4.55c-2.934-31.398-4.55-64.578-4.55-98.895s1.616-67.497 4.55-98.895zM430.815 581.55c29.967 2.422 61.232 3.68 93.376 3.68s63.408-1.258 93.376-3.68c-17.777 124.142-56.353 210.57-93.376 210.57s-75.599-86.428-93.376-210.57z" />
<glyph unicode="&#xe907;" glyph-name="ic_link" d="M788.932 670.005l-176.319 176.319c-10.777 10.777-24.99 16.152-39.176 16.152-14.213 0-28.398-5.375-39.176-16.152l-274.286-274.286c-21.555-21.527-21.555-56.797 0-78.352l176.319-176.319c10.777-10.777 24.99-16.18 39.203-16.18 14.185 0 28.398 5.403 39.176 16.18l89.822 89.849-39.176 39.176-89.822-89.849-176.346 176.319 274.147 274.203c0 0 0.055 0 0.139 0v0.083l176.319-176.319-89.849-89.849 39.176-39.176 89.849 89.822c21.555 21.555 21.555 56.824 0 78.379zM563.851 578.133c-10.777 10.777-24.99 16.152-39.176 16.152-14.213 0-28.426-5.375-39.176-16.152l-89.849-89.849 39.176-39.148 89.711 89.711c0 0.028 0.055 0.028 0.139 0.028l176.319-176.263-274.258-274.258-176.346 176.319 89.822 89.849-39.148 39.176-89.849-89.849c-21.555-21.527-21.555-56.797 0-78.352l176.319-176.319c10.777-10.777 24.99-16.18 39.203-16.18 14.185 0 28.371 5.403 39.176 16.18l274.258 274.258c21.555 21.555 21.555 56.824 0 78.379l-176.319 176.319z" />
<glyph unicode="&#xe908;" glyph-name="ic_linkedin_large" d="M274.894 610.395c-44.546 0-79.846 32.938-79.846 76.856 0 44.762 35.3 77.701 79.846 77.701 43.705 0 79.846-32.938 79.846-77.701 0-43.918-36.141-76.856-79.846-76.856zM207.655 546.208h136.158v-409.619h-136.158v409.619zM696.817 557.187c102.539 0 173.14-70.1 173.14-186.651v-233.947h-136.158v211.988c0 58.276-29.417 84.457-74.803 84.457-24.374 0-50.429-12.669-73.963-38.85v-257.595h-136.999v409.619h136.999v-27.026c32.779 24.493 68.079 38.006 111.784 38.006z" />
<glyph unicode="&#xe909;" glyph-name="ic_local_large" d="M341.333 131.048v390.095c0 26.93 21.831 48.762 48.762 48.762h268.19c26.93 0 48.762-21.831 48.762-48.762v-390.095h121.905v609.524h-609.524v-609.524h121.905zM219.429 789.333h609.524c26.93 0 48.762-21.831 48.762-48.762v-609.524c0-26.93-21.831-48.762-48.762-48.762h-609.524c-26.93 0-48.762 21.831-48.762 48.762v609.524c0 26.93 21.831 48.762 48.762 48.762zM390.095 521.143v-390.095h268.19v390.095h-268.19zM438.857 472.381h170.667v-73.143h-170.667v73.143zM438.857 350.476h170.667v-73.143h-170.667v73.143z" />
<glyph unicode="&#xe90a;" glyph-name="ic_map_large" d="M519.739 447.9c-75.387 0-136.546 60.237-136.546 134.567 0 74.295 61.158 134.532 136.546 134.532s136.546-60.237 136.546-134.532c0-74.329-61.158-134.567-136.546-134.567zM516.866 838.095c-150.81 0-273.056-120.474-273.056-269.099 0-31.88 5.923-62.344 16.262-90.736 11.39-31.293 234.328-397.068 234.328-397.068 12.337-20.931 32.594-20.931 44.931 0 0 0 222.938 365.775 234.328 397.068 10.339 28.392 16.262 58.856 16.262 90.736 0 148.624-122.246 269.099-273.056 269.099z" />
<glyph unicode="&#xe90b;" glyph-name="ic_mobile_large" d="M316.952 764.952v-658.286h414.476v658.286h-414.476zM312.719 813.714h422.954c24.581 0 44.517-20.512 44.517-45.803v-664.204c0-25.291-19.936-45.803-44.517-45.803h-422.954c-24.593 0-44.529 20.512-44.529 45.803v664.204c0 25.291 19.936 45.803 44.529 45.803zM365.714 716.19h316.952v-560.762h-316.952v560.762zM524.19 204.19c20.198 0 36.571 16.374 36.571 36.571s-16.374 36.571-36.571 36.571c-20.198 0-36.571-16.374-36.571-36.571s16.374-36.571 36.571-36.571z" />
<glyph unicode="&#xe90c;" glyph-name="ic_ordi_large" d="M187.129 764.952h674.123c22.468 0 40.843-18.505 40.843-41.131v-452.584c0-22.626-18.376-41.131-40.843-41.131h-255.35v-82.286h132.796v-41.155h-428.989v41.155h132.771v82.286h-255.35c-22.443 0-40.843 18.505-40.843 41.131v452.584c0 22.626 18.4 41.131 40.843 41.131zM195.048 277.333h658.286v438.857h-658.286v-438.857zM243.81 667.429h560.762v-341.333h-560.762v341.333z" />
<glyph unicode="&#xe90d;" glyph-name="icon-3e" horiz-adv-x="614" d="M437.489 131.211v222.184h151.986v-222.184h-151.986zM443.5-11.318v117.712h118.049l-118.049-117.712zM421.683 378.235h-148.829v139.517h288.732l-139.902-139.517zM201.836 789.606v139.529h210.751v-139.529h-210.751zM443.5 548.605v210.113h139.987v-210.113h-139.987zM443.5 907.33l118.085-117.748h-118.085v117.748zM561.55 378.235h-96.136l48.068 47.935 48.068-47.935zM201.836-33.147v139.541h210.751v-139.541h-210.751zM30.913 137.234v139.746h140.023v-139.746h-140.023zM170.936-11.403l-118.146 117.796h118.146v-117.796zM170.936 789.582h-118.097l118.097 117.748v-117.748zM30.961 619.273v139.469h139.975v-139.469h-139.975zM613.978 366.128c-0.169 0.795-0.422 1.53-1.024 3.012-0.289 0.675-0.638 1.313-1.385 2.482-0.47 0.687-1 1.313-1.771 2.132l-74.451 74.222 74.511 74.294c0.651 0.651 1.241 1.361 2.048 2.578 0.386 0.578 0.687 1.144 1.313 2.53 0.361 0.831 0.626 1.687 0.855 2.686 0.193 0.904 0.277 1.831 0.325 3.12l-0.012 241.339c-0.036 0.964-0.133 1.915-0.325 2.795l-0.108 0.373c-0.169 0.723-0.386 1.41-0.988 2.879-0.289 0.638-0.602 1.229-1.337 2.349-0.47 0.711-1 1.349-1.783 2.168l-171.586 171.032c-0.482 0.41-1.096 0.867-2.060 1.53-0.53 0.325-1.024 0.59-2.482 1.241-0.566 0.229-1.144 0.422-1.711 0.59l-0.482 0.12-0.084 0.012-0.879 0.169c-0.723 0.108-1.494 0.169-2.506 0.217l-242.074-0.024c-0.891-0.036-1.819-0.12-2.783-0.313-1-0.229-1.807-0.482-2.373-0.723l-1.253-0.542c-0.494-0.265-0.988-0.518-2-1.181-0.675-0.47-1.313-0.976-2.072-1.687l-171.008-170.55c-0.735-0.747-1.301-1.434-1.241-1.47l-0.964-1.373c-0.301-0.518-0.53-1.024-0.422-0.831l-0.747-1.506c-0.265-0.699-0.482-1.385-0.795-2.674-0.157-0.819-0.241-1.711-0.289-2.964v-170.309c0-8.517 6.939-15.444 15.456-15.444h170.9c8.517 0 15.444 6.927 15.444 15.444v154.889h210.751v-210.125h-155.19c-8.529 0-15.456-6.927-15.456-15.432v-170.37c0-8.505 6.927-15.444 15.456-15.444h155.19v-210.137h-210.751v155.19c0 8.505-6.927 15.42-15.444 15.42h-170.948c-8.517 0-15.444-6.915-15.444-15.42l0.024-171.044c0.024-0.554 0.060-1.12 0.217-1.988l0.181-1.096c0.169-0.699 0.373-1.337 1-2.879 0.205-0.47 0.446-0.904 1.337-2.349 0.458-0.675 0.976-1.301 1.795-2.168l170.839-170.345c1.831-1.855 4.204-3.241 6.698-3.903l1.289-0.373c0.976-0.181 1.988-0.277 3.012-0.277h241.616c2.060 0 4.060 0.41 5.060 0.916l1.554 0.602c0.626 0.313 1.265 0.651 1.397 0.759l174.116 172.96c0.506 0.59 1 1.169 1.181 1.446l0.687 1.012c0.386 0.626 0.687 1.181 1.289 2.566 0.277 0.759 0.518 1.482 0.747 2.446 0.181 0.904 0.277 1.831 0.217 1.928l0.108 0.651-0.024 241.893c-0.024 0.916-0.108 1.783-0.361 2.952z" />
<glyph unicode="&#xe90e;" glyph-name="ic_close" d="M524.19 9.143c-249.107 0-451.048 201.941-451.048 451.048s201.941 451.048 451.048 451.048c249.107 0 451.048-201.941 451.048-451.048s-201.941-451.048-451.048-451.048zM555.718 461.374l132.809 132.809c9.033 9.033 9.033 23.679 0 32.712s-23.679 9.033-32.712 0l-132.809-132.809-132.809 132.809c-9.033 9.033-23.679 9.033-32.712 0s-9.033-23.679 0-32.712l132.809-132.809-132.809-132.809c-9.033-9.033-9.033-23.679 0-32.712s23.679-9.033 32.712 0l132.809 132.809 132.809-132.809c9.033-9.033 23.679-9.033 32.712 0s9.033 23.679 0 32.712l-132.809 132.809z" />
<glyph unicode="&#xe90f;" glyph-name="ic_share" d="M566.667 294.233l-222.601 116.875c-17.878-22.112-45.226-36.251-75.876-36.251-53.861 0-97.524 43.663-97.524 97.524s43.663 97.524 97.524 97.524c33.433 0 62.937-16.823 80.507-42.466l242.784 101.089c-4.111 12.217-6.339 25.299-6.339 38.901 0 67.326 54.579 121.905 121.905 121.905s121.905-54.579 121.905-121.905c0-63.862-49.106-116.254-111.618-121.477l0.77-147.125c75.626-5.652 135.229-68.802 135.229-145.874 0-80.791-65.494-146.286-146.286-146.286s-146.286 65.494-146.286 146.286c0 14.335 2.062 28.189 5.905 41.28zM587.837 337.756c19.629 27.543 48.565 47.995 82.218 56.764l-0.822 156.982c-20.813 6.785-39.165 19.019-53.371 35.017l-250.632-104.357c0.32-3.217 0.484-6.48 0.484-9.781 0-5.871-0.519-11.621-1.513-17.206l223.636-117.419z" />
<glyph unicode="&#xe910;" glyph-name="ic_superficie_large" d="M219.429 740.571v-609.524h609.524v609.524h-609.524zM219.429 789.333h609.524c26.93 0 48.762-21.831 48.762-48.762v-609.524c0-26.93-21.831-48.762-48.762-48.762h-609.524c-26.93 0-48.762 21.831-48.762 48.762v609.524c0 26.93 21.831 48.762 48.762 48.762zM804.528 360.367c-0.014 1.222-0.388 2.401-0.733 3.609-0.158 0.618-0.158 1.294-0.417 1.869-0.244 0.575-0.733 1.035-1.064 1.582-0.633 1.064-1.237 2.157-2.128 3.019-0.058 0.058-0.072 0.115-0.129 0.173l-129.407 122.217c-2.761 2.617-6.327 3.853-9.864 3.853v0.072l-273.192-0.072c-3.537 0-7.103-1.237-9.878-3.853l-129.407-122.217c-0.058-0.058-0.058-0.115-0.115-0.173-0.891-0.863-1.495-1.955-2.128-3.019-0.331-0.546-0.82-1.006-1.064-1.582-0.259-0.575-0.259-1.251-0.417-1.869-0.345-1.208-0.719-2.387-0.733-3.609 0-0.072-0.043-0.129-0.043-0.201 0-0.719 0.302-1.323 0.403-2.013 0.158-1.107 0.244-2.229 0.661-3.278 0.417-1.064 1.136-1.941 1.783-2.861 0.403-0.561 0.59-1.208 1.078-1.725 0.043-0.058 0.115-0.072 0.173-0.115 0.863-0.891 1.955-1.495 3.034-2.142 0.532-0.316 0.992-0.82 1.553-1.050 0.575-0.259 1.251-0.244 1.855-0.417 1.208-0.345 2.387-0.719 3.638-0.733 0.072 0 0.129-0.043 0.201-0.043h532.005c0.072 0 0.129 0.043 0.201 0.043 1.251 0.014 2.43 0.388 3.638 0.733 0.604 0.173 1.265 0.158 1.84 0.417 0.575 0.23 1.035 0.733 1.567 1.050 1.078 0.647 2.171 1.251 3.034 2.142 0.058 0.043 0.129 0.058 0.173 0.115 0.489 0.518 0.676 1.165 1.078 1.725 0.647 0.92 1.352 1.797 1.783 2.861 0.417 1.050 0.503 2.171 0.661 3.278 0.086 0.69 0.403 1.294 0.403 2.013 0 0.072-0.043 0.129-0.043 0.201z" />
<glyph unicode="&#xe911;" glyph-name="ic_terrain_large" d="M316.952 658.242c0 112.8 92.78 204.235 207.238 204.235s207.238-91.435 207.238-204.235c0-24.196-4.495-47.317-12.342-68.865-8.645-23.75-177.845-301.358-177.845-301.358-9.363-15.886-24.738-15.886-34.101 0 0 0-169.201 277.608-177.845 301.358-7.847 21.548-12.342 44.669-12.342 68.865zM524.19 569.905c47.128 0 85.333 38.205 85.333 85.333s-38.205 85.333-85.333 85.333c-47.128 0-85.333-38.205-85.333-85.333s38.205-85.333 85.333-85.333zM73.143 143.238c-13.465 0-24.381 10.916-24.381 24.381s10.916 24.381 24.381 24.381h902.095c13.465 0 24.381-10.916 24.381-24.381s-10.916-24.381-24.381-24.381h-902.095zM991.979 185.344c9.789-9.246 10.23-24.676 0.985-34.466s-24.676-10.23-34.466-0.985l-219.429 207.238c-9.789 9.246-10.23 24.676-0.985 34.466s24.676 10.23 34.466 0.985l219.429-207.238zM56.402 185.344c-9.789-9.246-10.23-24.676-0.985-34.466s24.676-10.23 34.466-0.985l219.429 207.238c9.789 9.246 10.23 24.676 0.985 34.466s-24.676 10.23-34.466 0.985l-219.429-207.238z" />
<glyph unicode="&#xe912;" glyph-name="ic_zonage_large" d="M219.429 187.859l394.879 375.336c9.411 8.946 24.183 8.946 33.594 0l181.051-172.090v349.466h-609.524v-552.712zM230.437 131.048h598.516v192.783l-197.848 188.056-400.668-380.839zM877.714 334.339c0-0.033 0-0.065 0-0.098v-203.193c0-26.93-21.831-48.762-48.762-48.762h-609.524c-26.905 0-48.72 21.79-48.762 48.685 0 0.041 0 0.081 0 0.122v609.479c0 26.93 21.831 48.762 48.762 48.762h609.524c26.93 0 48.762-21.831 48.762-48.762v-406.233z" />
<glyph unicode="&#xe913;" glyph-name="ic_plus" d="M524.19 23.686c227.609 0 412.123 184.514 412.123 412.123s-184.514 412.123-412.123 412.123c-227.609 0-412.123-184.514-412.123-412.123s184.514-412.123 412.123-412.123zM524.19-15.238c-249.107 0-451.048 201.941-451.048 451.048s201.941 451.048 451.048 451.048c249.107 0 451.048-201.941 451.048-451.048s-201.941-451.048-451.048-451.048zM567.909 426.571v-184.62c0-12.557-10.179-22.736-22.736-22.736s-22.736 10.179-22.736 22.736v184.62h-184.62c-12.557 0-22.736 10.179-22.736 22.736s10.179 22.736 22.736 22.736h184.62v184.62c0 12.557 10.179 22.736 22.736 22.736s22.736-10.179 22.736-22.736v-184.62h184.62c12.557 0 22.736-10.179 22.736-22.736s-10.179-22.736-22.736-22.736h-184.62z" />
</font>
</defs>
</svg>
